General Levy- We Progressive

General Levy- We Progressive

  • Order:
  • Duration: 6:56
  • Updated: 23 Mar 2013
  • views: 5003
videos
General Levy we progressive
https://wn.com/General_Levy_We_Progressive
Bestami Turna   Progressive Revenge Only Dark December 2013

Bestami Turna Progressive Revenge Only Dark December 2013

  • Order:
  • Duration: 58:35
  • Updated: 01 Dec 2013
  • views: 6592
videos
General Progressive dark Complete name :\Bestami Turna - Progressive Revenge Only Dark December 2013.mp4 Format : MPEG-4 Format profile : Base Media / Version 2 Codec ID : mp42 File size : 143 MiB Duration : 58mn 34s Overall bit rate : 341 Kbps
https://wn.com/Bestami_Turna_Progressive_Revenge_Only_Dark_December_2013
Video 7 Progressive Line general

Video 7 Progressive Line general

  • Order:
  • Duration: 0:58
  • Updated: 10 May 2017
  • views: 52
videos https://wn.com/Video_7_Progressive_Line_General
Ainsworth- Jackpot General - $5 bet - Free Spins - Progressive Win & Retrigger - pokie slots

Ainsworth- Jackpot General - $5 bet - Free Spins - Progressive Win & Retrigger - pokie slots

  • Order:
  • Duration: 3:52
  • Updated: 22 Aug 2016
  • views: 1881
videos
Ainsworth- Jackpot General - $5 bet - Free Spins - Progressive Win & Retrigger - pokie slots
https://wn.com/Ainsworth_Jackpot_General_5_Bet_Free_Spins_Progressive_Win_Retrigger_Pokie_Slots
Video 1   Progressive Line general

Video 1 Progressive Line general

  • Order:
  • Duration: 0:53
  • Updated: 10 May 2017
  • views: 108
videos https://wn.com/Video_1_Progressive_Line_General
Bobby Deep & RPO   Under Oaxaca booya Progressive Mash

Bobby Deep & RPO Under Oaxaca booya Progressive Mash

  • Order:
  • Duration: 8:37
  • Updated: 08 Dec 2014
  • views: 160
videos
General : Progressive Complete name \ Bobby Deep & RPO - Under Oaxaca (booya Progressive Mash).mp4 Format : MPEG-4 Format profile : Base Media / Version 2 Codec ID : mp42 File size : 26.4 MiB Duration : 8mn 36s Overall bit rate : 429 Kbps Video ID : 1 Format : AVC Format/Info : Advanced Video Codec Format profile : Baseline@L3.1 Format settings, CABAC : No Format settings, ReFrames : 1 frame Format settings, GOP : M=1, N=30 Codec ID : avc1 Codec ID/Info : Advanced Video Coding Duration : 8mn 36s Source duration : 8mn 36s Bit rate : 230 Kbps Width : 854 pixels Height : 480 pixels Display aspect ratio : 16:9 Frame rate mode : Constant Frame rate : 29.970 fps Color space : YUV Chroma subsampling : 4:2:0 Bit depth : 8 bits Scan type : Progressive Bits/(Pixel*Frame) : 0.019 Stream size : 14.1 MiB (54%) Source stream size : 14.1 MiB (54%) mdhd_Duration : 86752 Audio ID : 2 Format : AAC Format/Info : Advanced Audio Codec Format profile : LC Codec ID : 40 Duration : 8mn 36s Bit rate mode : Constant Bit rate : 192 Kbps Channel(s) : 2 channels Channel positions : Front: L R Sampling rate : 48.0 KHz Compression mode : Lossy Stream size : 12.0 MiB (46%) mdhd_Duration : 86685
https://wn.com/Bobby_Deep_Rpo_Under_Oaxaca_Booya_Progressive_Mash
booya   Progressive Resistance 07 11 2014

booya Progressive Resistance 07 11 2014

  • Order:
  • Duration: 57:30
  • Updated: 02 Dec 2014
  • views: 438
videos
General /Progressive Complete name \ booya - Progressive Resistance 07.11.2014.mp4 Format : MPEG-4 Format profile : Base Media / Version 2 Codec ID : mp42 File size : 360 MiB Duration : 57mn 29s Overall bit rate : 876 Kbps Video ID : 1 Format : AVC Format/Info : Advanced Video Codec Format profile : Baseline@L3.1 Format settings, CABAC : No Format settings, ReFrames : 1 frame Format settings, GOP : M=1, N=30 Codec ID : avc1 Codec ID/Info : Advanced Video Coding Duration : 57mn 29s Source duration : 57mn 29s Bit rate : 677 Kbps Width : 854 pixels Height : 480 pixels Display aspect ratio : 16:9 Frame rate mode : Constant Frame rate : 29.970 fps Color space : YUV Chroma subsampling : 4:2:0
https://wn.com/Booya_Progressive_Resistance_07_11_2014
Levitation Progressive   Freak Alliance

Levitation Progressive Freak Alliance

  • Order:
  • Duration: 1:04:58
  • Updated: 18 Dec 2014
  • views: 397
videos
General : Progressive. Complete name \Levitation Progressive - Freak Alliance.mp4 Format : MPEG-4 Format profile : Base Media / Version 2 Codec ID : mp42 File size : 233 MiB Duration : 1h 4mn Overall bit rate : 502 Kbps Video ID : 1 Format : AVC Format/Info : Advanced Video Codec Format profile : Baseline@L3.1 Format settings, CABAC : No Format settings, ReFrames : 1 frame Format settings, GOP : M=1, N=30 Codec ID : avc1 Codec ID/Info : Advanced Video Coding Duration : 1h 4mn Source duration : 1h 4mn Bit rate : 302 Kbps Width : 854 pixels Height : 480 pixels Display aspect ratio : 16:9 Frame rate mode : Constant Frame rate : 29.970 fps Color space : YUV Chroma subsampling : 4:2:0 Bit depth : 8 bits Scan type : Progressive Bits/(Pixel*Frame) : 0.025 Stream size : 141 MiB (60%) Source stream size : 141 MiB (60%) mdhd_Duration : 3897627 Audio ID : 2 Format : AAC Format/Info : Advanced Audio Codec Format profile : LC Codec ID : 40 Duration : 1h 4mn Bit rate mode : Constant Bit rate : 192 Kbps Channel(s) : 2 channels Channel positions : Front: L R Sampling rate : 48.0 KHz Compression mode : Lossy Stream size : 91.2 MiB (39%) mdhd_Duration : 3897579
https://wn.com/Levitation_Progressive_Freak_Alliance
GENERAL OR PROGRESSIVE

GENERAL OR PROGRESSIVE

  • Order:
  • Duration: 11:03
  • Updated: 20 Nov 2015
  • views: 7
videos
https://wn.com/General_Or_Progressive
Video 6 Progressive Line general

Video 6 Progressive Line general

  • Order:
  • Duration: 0:58
  • Updated: 10 May 2017
  • views: 50
videos https://wn.com/Video_6_Progressive_Line_General
silver & steel   general roland's last stand  1993  techno trance progressive

silver & steel general roland's last stand 1993 techno trance progressive

  • Order:
  • Duration: 8:25
  • Updated: 02 Dec 2012
  • views: 1647
videos
https://wn.com/Silver_Steel_General_Roland's_Last_Stand_1993_Techno_Trance_Progressive
Video 8 Progressive Line general

Video 8 Progressive Line general

  • Order:
  • Duration: 0:53
  • Updated: 10 May 2017
  • views: 48
videos https://wn.com/Video_8_Progressive_Line_General
Video 3  Progressive Line general

Video 3 Progressive Line general

  • Order:
  • Duration: 0:56
  • Updated: 10 May 2017
  • views: 62
videos https://wn.com/Video_3_Progressive_Line_General
General Levy & PSB Family - We progressive (album "We progressive") OFFICIEL

General Levy & PSB Family - We progressive (album "We progressive") OFFICIEL

  • Order:
  • Duration: 4:29
  • Updated: 21 Oct 2011
  • views: 50798
videos
General Levy & PSB Family - We progressive (album "We progressive") OFFICIEL GENERAL LEVY http://www.general-levy.com http://www.myspace.com/generalevy X-RAY PRODUCTION http://www.xrayproduction.com booking: xraybooking@gmail.com contact: xraycontact@hotmail.com
https://wn.com/General_Levy_Psb_Family_We_Progressive_(Album_We_Progressive_)_Officiel
General Levy & PSB Family - We progressive FULL ALBUM

General Levy & PSB Family - We progressive FULL ALBUM

  • Order:
  • Duration: 45:09
  • Updated: 06 Nov 2015
  • views: 3929
videos
GENERAL LEVY - WE PROGRESSIVE ☛ VINYL & CD : http://shopxray.com/general-levy/395-general-levy-we-progressive-vinyle-.html ☛ ITUNES : https://itunes.apple.com/fr/album/we-progressive/id430667467 FOLLOW X-RAY PRODUCTION : ☛ Website : http://bit.ly/22hVOKO ☛ Facebook : http://bit.ly/1W5UOJS ☛ Instagram : http://bit.ly/22hVKLc ☛ Twitter : http://bit.ly/1U4gyzw
https://wn.com/General_Levy_Psb_Family_We_Progressive_Full_Album
Matteo Monero   DeeperSense Progressive Structures 028

Matteo Monero DeeperSense Progressive Structures 028

  • Order:
  • Duration: 1:01:10
  • Updated: 25 Apr 2014
  • views: 2433
videos
General : Progressive House Complete name \Matteo Monero - DeeperSense Progressive Structures 028.mp4 Format : MPEG-4 Format profile : Base Media / Version 2 Codec ID : mp42 File size : 292 MiB Duration : 1h 1mn Overall bit rate : 668 Kbps Encoded date : UTC 2014-04-26 02:06:58
https://wn.com/Matteo_Monero_Deepersense_Progressive_Structures_028
×